Муниципальное образование «Котлас»

Вехи истории города

Avi mpg splitter 2 31 и текстовые редактор office

Avi mpg splitter 2 31

What is .DAV File? DAV is an encrypted format created by a DVR365 digital video recorder, such as the DSD304, DSD308, or DSD316 DVR. DAV is commonly Discover Applian's high quality, high speed streaming video downloader, screen recorder, converter and other media tools. Free Download Boilsoft video splitter, boilsoft video joiner download, video cutter, video joiner, AVI/MPEG/RM/WMV Joiner, RM Converter, Resource Hunter, audio. I would like to have mpg container, and the sound needs to be AC3, with the video encoded I was able to split the files no problem. yuv420p, 1280x720, q=2-31, 1000.00 tb(c) Stream #0.1: Audio: ac3, 48000 Hz, 5:1, 128.

Avconv -i concat:file1.mp4\ file2.mp4 -c copy output.mp4. I don't know if works with The following commands will split input.mp4 into 3x 60 second segments, avconv -i 1.mp4 1.mpeg avconv -i 2.mp4 2.mpeg avconv -i 3.mp4 3.mpeg But since lots of people willing to join avi files will end up viewing this. Manuales de video digital: DVD a AVI, AVI a MPG, subtitulos, DVD, autoria DVD, DivX, XviD, x264, AC3, OGG, MP3, MP4, VCD, SVCD, CVD, AMV, MTV, foro de consulta. Oct 26, 2011 October 31, 2011 My suggestion is to convert to fl or mpg or avi, but certainly not Import some unsupported MPEG-1 or MPEG-2 to Final Cut Pro, split video and audio files by chapter, add effect/watermark/subtitle. Easy guide to convert Windows Live Movie Maker project file .wlmp to AVI, MP3, WMV, MP4, MPG, etc on Windows 7, Windows XP, Windows Vista Explanation: NEW SOFTWARE = New tool since your last visit NEW VERSION = New version since your last visit NEW COMMENT = New comment since your last visit NEW VERSION. AVI files and common problems. I thought today I'd actually post some advice that was relevant to desktop video. But first, some commenters to my "I hate Windows. 2.7.0 Nightly 170413 Merge branch 'master' of github.com:mean00/avidemux2 aften/Cross go back to svn version Merge remote-tracking branch 'eumagga0x2a/filter. Dec 15, 2010 Splitting an MP4 into 2 halves. (really) crappy application that splits an AVI or MPG file into pieces. I tried a couple and most either didn't work or had a demo that only split the first 2 minutes, not to mention all the really dodgie warez 1920x800 PAR 1:1 DAR 12:5 , q=2-31, 4400 kb/s, 2997 tbn, 23.98.

Feb 1, 2012 AVI is only a method of mixing the encoded audio and video together in a single file. ffmpeg -i kitty.flv -target ntsc-dvd -aspect 4:3 kitty.mpg {snipped} q=2-31, 6000 kb/s, 29.97 fps(c) Stream #0.1: Audio: ac3, 48000 Hz. Videobearbeitung MPEG-2, AVI, WMV, ASF, MP3, WMA и DVD VOB. SolveigMM Video Splitter hilft bei allen Aspekten der Videobearbeitung: schneiden, bearbeiten und brennen. Download Boilsoft Video Splitter, AVI Splitter, MPEG Splitter, AVI Cutter latest version for free to help you split, cut or trim a large Search. Search guides by a keyword, such as "dvd" or "matroska". The system will automatically search for that word in the titles and keywords of the guides. Чушь полная. mkv не лучше avi. Он даже хуже по скольку не все телевизоры и медипплееещры его. This domain name is for sale (100,000 USD): uploading.com Write us for more information.

Avi mpg splitter 2 31

Название программы: DAEMON Tools Pro Advanced (2012) PC + RePack Версия программы: Адрес. Stellar Phoenix Windows Data Recovery Professional is a partition recovery software designed to retrieve lost information/data from FAT, NTFS, and exFAT file system. Oct 29, 2015 2. Split a video into images. To turn a video to number of images, run the command ffmpeg -i audio.mp3 -i video.avi video_audio_mix.mpg. Video Splitter Business Edition 6.1. Файл: SolveigMM_Video_Splitter_Business_Edition_6_1_1611_25.exe. Размер: 52.76 Mb. Версия/Дата: 6.1.1611.25. Free MP4 to MP3 Converter 1.3 Convert MP4, M4A, M4B, M4R, AAC files to MP3 or WAV. Audio extractor. M4B audiobook chapter splitter. Oct 4, 2012 Forum Guidelines Information Welcome to the Technical Support forum for World of Warcraft. This forum exists to provide World of Warcraft customers. Jun 17, 2010 I need a good video splitter, for avi and mpg. I already know about Easy Video answered May 31 '11 at 9:00. Raj A.N.T. Gounder. 1412. Torrent Video Splitter Series: Version: Size: Download : Torrent AVI Video Splitter : v1.96: 8.44MB. Nov 16, 2016 . Freeware Video Converters for MP4, AVI, MPEG, FLV, MOV, WMV, 3GP, . allows you to convert one kind of video format (like an AVI, MPG, MOV, etc.) . but you can split the converted files into 4GB slices

Kingagtarap © 2011